Green Lantern (2011) DVDRip XviD-AMIABLE

title

Green Lantern (2011) DVDRip XviD-AMIABLE

http://www.imdb.com/title/tt1133985

General
Complete name : Green.Lantern.2011.DVDRip.XviD-AMIABLECD1green.lantern.2011.dvdrip.xvid.amiable.cd1.avi
Format : AVI
Format/Info : Audio Video Interleave
File size : 699 MiB
Duration : 59mn 1s
Overall bit rate : 1 655 Kbps
Writing application : VirtualDubMod 1.5.10.2 (build 2540/release)
Writing library : VirtualDubMod build 2540/release
segm :
Video
ID : 0
Format : MPEG-4 Visual
Format profile : Advanced Simple@L5
Format settings, BVOP : 1
Format settings, QPel : No
Format settings, GMC : No warppoints
Format settings, Matrix : Default (H.263)
Muxing mode : Packed bitstream
Codec ID : XVID
Codec ID/Hint : XviD
Duration : 59mn 1s
Bit rate : 1 261 Kbps
Width : 640 pixels
Height : 272 pixels
Display aspect ratio : 2.35:1
Frame rate : 23.976 fps
Color space : YUV
Chroma subsampling : 4:2:0
Bit depth : 8 bits
Scan type : Progressive
Compression mode : Lossy
Bits/(Pixel*Frame) : 0.302
Stream size : 533 MiB (76%)
Writing library : XviD 64
Audio
ID : 1
Format : AC-3
Format/Info : Audio Coding 3
Mode extension : CM (complete main)
Format settings, Endianness : Big
Codec ID : 2000
Duration : 59mn 1s
Bit rate mode : Constant
Bit rate : 384 Kbps
Channel(s) : 6 channels
Channel positions : Front: L C R, Side: L R, LFE
Sampling rate : 48.0 KHz
Bit depth : 16 bits
Compression mode : Lossy
Stream size : 162 MiB (23%)
Alignment : Split accross interleaves
Interleave, duration : 42 ms (1.00 video frame)
Interleave, preload duration : 500 ms

General
Complete name : Green.Lantern.2011.DVDRip.XviD-AMIABLECD2green.lantern.2011.dvdrip.xvid.amiable.cd2.avi
Format : AVI
Format/Info : Audio Video Interleave
File size : 699 MiB
Duration : 54mn 58s
Overall bit rate : 1 777 Kbps
Writing application : VirtualDubMod 1.5.10.2 (build 2540/release)
Writing library : VirtualDubMod build 2540/release
Video
ID : 0
Format : MPEG-4 Visual
Format profile : Advanced Simple@L5
Format settings, BVOP : 1
Format settings, QPel : No
Format settings, GMC : No warppoints
Format settings, Matrix : Default (H.263)
Muxing mode : Packed bitstream
Codec ID : XVID
Codec ID/Hint : XviD
Duration : 54mn 58s
Bit rate : 1 384 Kbps
Width : 640 pixels
Height : 272 pixels
Display aspect ratio : 2.35:1
Frame rate : 23.976 fps
Color space : YUV
Chroma subsampling : 4:2:0
Bit depth : 8 bits
Scan type : Progressive
Compression mode : Lossy
Bits/(Pixel*Frame) : 0.332
Stream size : 544 MiB (78%)
Writing library : XviD 64
Audio
ID : 1
Format : AC-3
Format/Info : Audio Coding 3
Mode extension : CM (complete main)
Format settings, Endianness : Big
Codec ID : 2000
Duration : 54mn 58s
Bit rate mode : Constant
Bit rate : 384 Kbps
Channel(s) : 6 channels
Channel positions : Front: L C R, Side: L R, LFE
Sampling rate : 48.0 KHz
Bit depth : 16 bits
Compression mode : Lossy
Delay relative to video : 23ms
Stream size : 151 MiB (22%)
Alignment : Split accross interleaves
Interleave, duration : 42 ms (1.00 video frame)
Interleave, preload duration : 500 ms
rapidgator.net:

http://rapidgator.net/file/30fcf8093f652dc5646282130ec731e8/Green.Lantern.2011.DVDRip.XviD.AMIABLE.part1.rar.html

http://rapidgator.net/file/bd31522d8ca2d424b8dda7e4939fc039/Green.Lantern.2011.DVDRip.XviD.AMIABLE.part2.rar.html

:

http://rapidgator.net/file/30fcf8093f652dc5646282130ec731e8/Green.Lantern.2011.DVDRip.XviD.AMIABLE.part1.rar.html

http://rapidgator.net/file/bd31522d8ca2d424b8dda7e4939fc039/Green.Lantern.2011.DVDRip.XviD.AMIABLE.part2.rar.html

Leave a Reply

You must be logged in to post a comment.

Яндекс.Метрика